osu file format v14

[General]
AudioFilename: Univer Page.mp3
AudioLeadIn: 2000
PreviewTime: 51824
Countdown: 0
SampleSet: Normal
StackLeniency: 0.7
Mode: 1
LetterboxInBreaks: 0
WidescreenStoryboard: 0

[Editor]
DistanceSpacing: 0.8
BeatDivisor: 2
GridSize: 8
TimelineZoom: 1.4

[Metadata]
Title:Univer Page
TitleUnicode:ユニバーページ
Artist:Mimori Suzuko
ArtistUnicode:三森すずこ
Creator:Pandiar
Version:JuDa's Muzukashii
Source:Outbreak Company
Tags:アウトブレイク・カンパニー opening moeru shinryakusha myuseru petoraruka judydanny feel tv size
BeatmapID:315017
BeatmapSetID:120646

[Difficulty]
HPDrainRate:4
CircleSize:4
OverallDifficulty:5
ApproachRate:4
SliderMultiplier:1.4
SliderTickRate:1

[Events]
//Background and Video events
0,0,"BG.jpg",0,80
//Break Periods
//Storyboard Layer 0 (Background)
//Storyboard Layer 1 (Fail)
//Storyboard Layer 2 (Pass)
//Storyboard Layer 3 (Foreground)
//Storyboard Sound Samples
//Background Colour Transformations
3,100,163,162,255

[TimingPoints]
477,316.622691292876,4,1,0,90,1,0
477,-101.010101010101,4,1,0,90,0,0
3054,320.855614973262,4,1,0,90,1,0
51824,-100,4,1,0,90,0,1
61449,-100,4,1,0,90,0,0
62091,-100,4,1,0,90,0,1
71075,-100,4,1,0,90,0,0

[Colours]
Combo1 : 163,70,255
Combo2 : 244,79,129

[HitObjects]
160,154,477,5,0,0:0:0:0:
160,154,635,1,2,0:0:0:0:
174,131,793,1,0,0:0:0:0:
160,154,1110,1,2,0:0:0:0:
160,154,1268,1,0,0:0:0:0:
160,154,1585,1,2,0:0:0:0:
160,154,1743,1,0,0:0:0:0:
174,131,2060,1,2,0:0:0:0:
161,125,2218,1,0,0:0:0:0:
160,154,2535,1,2,0:0:0:0:
160,154,2693,1,0,0:0:0:0:
160,154,2851,1,0,0:0:0:0:
200,140,3054,1,4,0:0:0:0:
200,140,3374,1,2,0:0:0:0:
200,140,3695,1,0,0:0:0:0:
200,140,3856,1,0,0:0:0:0:
200,140,4016,1,2,0:0:0:0:
200,140,4337,5,0,0:0:0:0:
200,140,4658,1,2,0:0:0:0:
200,140,4818,1,0,0:0:0:0:
200,140,5139,1,0,0:0:0:0:
200,140,5299,1,2,0:0:0:0:
200,96,5460,1,0,0:0:0:0:
200,140,5620,5,0,0:0:0:0:
200,140,5941,1,2,0:0:0:0:
200,140,6262,1,0,0:0:0:0:
200,140,6422,1,0,0:0:0:0:
200,140,6583,1,2,0:0:0:0:
200,140,6743,1,0,0:0:0:0:
200,140,6904,5,2,0:0:0:0:
200,140,7225,1,2,0:0:0:0:
200,140,7385,1,0,0:0:0:0:
200,140,7706,1,0,0:0:0:0:
200,140,7866,1,2,0:0:0:0:
200,140,8187,1,0,0:0:0:0:
200,140,8508,1,2,0:0:0:0:
200,140,8829,1,0,0:0:0:0:
200,140,8989,1,0,0:0:0:0:
200,140,9150,1,2,0:0:0:0:
200,140,9471,5,2,0:0:0:0:
224,100,9631,1,0,0:0:0:0:
200,140,9791,1,2,0:0:0:0:
200,140,9952,1,0,0:0:0:0:
200,140,10273,1,0,0:0:0:0:
200,140,10433,1,2,0:0:0:0:
200,140,10754,5,4,0:0:0:0:
181,81,11075,1,0,0:0:0:0:
200,140,11396,1,2,0:0:0:0:
200,136,12037,5,6,0:0:0:0:
200,140,12358,1,2,0:0:0:0:
200,140,12679,1,2,0:0:0:0:
220,120,12759,1,2,0:0:0:0:
240,100,12840,1,2,0:0:0:0:
200,140,13000,1,2,0:0:0:0:
212,222,13160,1,2,0:0:0:0:
200,136,13321,5,4,0:0:0:0:
200,140,13642,1,2,0:0:0:0:
200,140,13963,1,0,0:0:0:0:
200,140,14123,1,0,0:0:0:0:
200,140,14283,1,2,0:0:0:0:
200,136,14444,1,0,0:0:0:0:
185,104,14604,1,0,0:0:0:0:
200,140,14925,1,2,0:0:0:0:
200,140,15246,1,0,0:0:0:0:
200,140,15406,1,0,0:0:0:0:
200,140,15567,1,2,0:0:0:0:
200,136,15888,5,0,0:0:0:0:
200,140,16209,1,2,0:0:0:0:
200,140,16369,1,2,0:0:0:0:
200,140,16529,1,0,0:0:0:0:
200,140,16850,1,2,0:0:0:0:
200,136,17171,1,0,0:0:0:0:
200,140,17492,1,2,0:0:0:0:
200,140,17652,1,0,0:0:0:0:
200,140,17973,1,0,0:0:0:0:
200,140,18134,1,2,0:0:0:0:
200,136,18455,5,0,0:0:0:0:
194,111,18775,1,2,0:0:0:0:
194,111,19096,1,0,0:0:0:0:
194,111,19257,1,0,0:0:0:0:
194,111,19417,1,2,0:0:0:0:
200,136,19578,1,0,0:0:0:0:
200,136,19738,1,0,0:0:0:0:
194,111,20059,1,2,0:0:0:0:
194,111,20380,1,0,0:0:0:0:
194,111,20540,1,0,0:0:0:0:
194,111,20701,1,2,0:0:0:0:
194,111,21021,5,0,0:0:0:0:
194,111,21342,1,2,0:0:0:0:
194,111,21503,1,2,0:0:0:0:
194,111,21663,1,0,0:0:0:0:
194,111,21984,1,2,0:0:0:0:
180,86,22305,5,0,0:0:0:0:
180,86,22465,1,2,0:0:0:0:
205,70,22626,1,2,0:0:0:0:
205,70,22786,1,2,0:0:0:0:
205,70,22947,1,0,0:0:0:0:
192,48,23107,1,0,0:0:0:0:
205,70,23267,1,2,0:0:0:0:
205,70,23588,5,4,0:0:0:0:
180,86,23909,1,2,0:0:0:0:
205,70,24230,1,0,0:0:0:0:
205,70,24390,1,0,0:0:0:0:
205,70,24551,1,2,0:0:0:0:
205,70,24711,1,2,0:0:0:0:
191,115,24872,1,0,0:0:0:0:
180,86,25193,1,2,0:0:0:0:
205,70,25513,1,0,0:0:0:0:
205,70,25674,1,0,0:0:0:0:
205,70,25834,1,2,0:0:0:0:
205,70,26155,5,0,0:0:0:0:
180,86,26476,1,2,0:0:0:0:
180,86,26636,1,2,0:0:0:0:
205,70,26797,1,0,0:0:0:0:
205,70,27118,1,2,0:0:0:0:
205,70,27278,1,0,0:0:0:0:
205,70,27439,1,2,0:0:0:0:
180,86,27759,1,2,0:0:0:0:
180,86,27920,1,0,0:0:0:0:
184,80,28080,1,0,0:0:0:0:
180,86,28241,1,0,0:0:0:0:
180,86,28401,1,2,0:0:0:0:
255,189,28562,1,2,0:0:0:0:
180,86,28722,5,0,0:0:0:0:
88,34,29043,1,2,0:0:0:0:
88,34,29203,1,0,0:0:0:0:
88,34,29524,1,0,0:0:0:0:
88,34,29685,1,2,0:0:0:0:
144,36,29845,1,0,0:0:0:0:
88,34,30005,1,0,0:0:0:0:
98,61,30326,1,2,0:0:0:0:
98,61,30647,1,0,0:0:0:0:
144,40,30808,1,0,0:0:0:0:
98,61,30968,1,2,0:0:0:0:
98,61,31289,5,4,0:0:0:0:
98,61,31610,1,2,0:0:0:0:
98,61,31931,1,4,0:0:0:0:
98,61,32251,1,2,0:0:0:0:
98,61,32572,5,4,0:0:0:0:
0,51,32893,1,2,0:0:0:0:
0,51,33054,1,2,0:0:0:0:
0,51,33214,1,0,0:0:0:0:
0,51,33374,1,0,0:0:0:0:
0,51,33535,1,2,0:0:0:0:
0,51,33695,1,2,0:0:0:0:
0,51,33856,5,4,0:0:0:0:
232,160,34176,1,0,0:0:0:0:
232,160,34497,1,2,0:0:0:0:
232,160,34818,1,0,0:0:0:0:
232,160,35139,1,2,0:0:0:0:
232,160,35460,1,0,0:0:0:0:
232,160,35620,1,0,0:0:0:0:
232,160,35781,1,2,0:0:0:0:
232,160,36422,5,0,0:0:0:0:
232,160,36743,1,0,0:0:0:0:
232,160,37064,1,2,0:0:0:0:
224,128,37225,1,0,0:0:0:0:
232,160,37385,1,2,0:0:0:0:
232,160,37706,1,0,0:0:0:0:
232,160,38027,1,2,0:0:0:0:
232,160,38187,1,2,0:0:0:0:
232,160,38348,1,0,0:0:0:0:
232,160,38508,1,0,0:0:0:0:
232,160,38668,1,2,0:0:0:0:
232,160,38829,1,2,0:0:0:0:
232,160,38989,5,4,0:0:0:0:
205,107,39310,1,0,0:0:0:0:
210,145,39471,1,0,0:0:0:0:
205,107,39631,1,2,0:0:0:0:
205,107,39952,1,0,0:0:0:0:
210,145,40273,1,2,0:0:0:0:
210,145,40594,1,2,0:0:0:0:
210,145,40754,1,2,0:0:0:0:
210,145,40914,1,0,0:0:0:0:
243,149,41396,5,4,0:0:0:0:
210,145,41717,1,0,0:0:0:0:
210,145,41877,1,2,0:0:0:0:
219,116,42198,1,2,0:0:0:0:
190,116,42519,1,0,0:0:0:0:
219,116,42679,5,4,0:0:0:0:
190,116,43000,1,0,0:0:0:0:
190,116,43160,1,2,0:0:0:0:
190,116,43481,1,2,0:0:0:0:
268,134,43642,1,0,0:0:0:0:
190,116,43802,1,2,0:0:0:0:
190,116,44123,5,4,0:0:0:0:
164,91,44444,1,2,0:0:0:0:
164,91,44765,1,0,0:0:0:0:
164,91,44925,1,0,0:0:0:0:
164,91,45086,1,2,0:0:0:0:
164,91,45246,5,4,0:0:0:0:
164,91,45567,1,0,0:0:0:0:
164,91,45727,1,2,0:0:0:0:
164,91,46048,1,2,0:0:0:0:
164,91,46209,1,0,0:0:0:0:
164,91,46369,1,2,0:0:0:0:
164,91,46690,5,4,0:0:0:0:
164,91,47011,1,2,0:0:0:0:
164,91,47332,1,0,0:0:0:0:
164,91,47492,1,0,0:0:0:0:
164,91,47652,1,2,0:0:0:0:
164,91,47973,1,0,0:0:0:0:
164,91,48294,1,2,0:0:0:0:
340,174,48455,1,0,0:0:0:0:
164,91,48775,5,0,0:0:0:0:
164,91,48936,1,2,0:0:0:0:
152,76,49257,5,0,0:0:0:0:
204,52,49417,1,0,0:0:0:0:
164,91,49578,1,0,0:0:0:0:
164,91,49738,1,0,0:0:0:0:
164,91,49898,1,0,0:0:0:0:
164,91,50059,1,0,0:0:0:0:
164,91,50219,1,2,0:0:0:0:
164,91,50380,1,2,0:0:0:0:
164,91,50701,1,6,0:0:0:0:
164,91,51021,1,6,0:0:0:0:
164,91,51342,1,6,0:0:0:0:
164,91,51824,5,4,0:0:0:0:
170,118,52144,1,2,0:0:0:0:
170,118,52465,5,0,0:0:0:0:
170,118,52626,1,0,0:0:0:0:
170,118,52786,1,2,0:0:0:0:
170,118,52947,5,0,0:0:0:0:
170,118,53267,1,0,0:0:0:0:
170,118,53428,1,2,0:0:0:0:
170,118,53588,1,0,0:0:0:0:
170,118,53668,1,0,0:0:0:0:
170,118,53749,5,0,0:0:0:0:
170,118,53909,1,0,0:0:0:0:
170,118,54070,1,2,0:0:0:0:
170,118,54230,5,0,0:0:0:0:
170,118,54551,1,0,0:0:0:0:
170,118,54711,1,2,0:0:0:0:
170,118,55032,1,0,0:0:0:0:
170,118,55193,1,0,0:0:0:0:
170,118,55353,1,2,0:0:0:0:
170,118,55674,5,0,0:0:0:0:
170,118,55995,1,2,0:0:0:0:
170,118,56155,1,0,0:0:0:0:
157,80,56476,5,0,0:0:0:0:
170,118,56636,1,2,0:0:0:0:
170,118,56797,1,2,0:0:0:0:
170,118,56957,5,4,0:0:0:0:
170,118,57278,1,2,0:0:0:0:
170,118,57599,1,0,0:0:0:0:
170,118,57759,1,0,0:0:0:0:
170,118,57920,1,2,0:0:0:0:
194,88,58241,5,0,0:0:0:0:
170,118,58562,1,2,0:0:0:0:
178,65,58722,1,2,0:0:0:0:
178,65,58882,1,0,0:0:0:0:
170,118,59043,1,0,0:0:0:0:
170,118,59203,1,2,0:0:0:0:
170,118,59524,5,0,0:0:0:0:
170,118,59845,1,2,0:0:0:0:
170,118,60166,5,0,0:0:0:0:
208,116,60326,1,0,0:0:0:0:
170,118,60487,1,2,0:0:0:0:
170,118,60647,5,0,0:0:0:0:
170,118,60968,1,2,0:0:0:0:
152,92,61128,1,0,0:0:0:0:
170,118,61289,1,2,0:0:0:0:
170,118,61449,5,4,0:0:0:0:
170,118,61610,1,4,0:0:0:0:
170,118,61931,5,0,0:0:0:0:
170,118,62011,5,0,0:0:0:0:
170,118,62091,5,0,0:0:0:0:
170,118,62251,1,0,0:0:0:0:
170,118,62412,1,2,0:0:0:0:
170,118,62733,1,0,0:0:0:0:
170,118,62893,1,0,0:0:0:0:
170,118,63053,1,2,0:0:0:0:
170,118,63214,1,0,0:0:0:0:
176,60,63535,1,0,0:0:0:0:
170,118,63695,1,2,0:0:0:0:
176,60,63856,1,0,0:0:0:0:
176,60,63936,1,0,0:0:0:0:
176,60,64016,1,0,0:0:0:0:
170,118,64176,1,0,0:0:0:0:
170,118,64337,1,2,0:0:0:0:
176,60,64497,1,0,0:0:0:0:
170,118,64818,5,0,0:0:0:0:
176,84,64979,1,2,0:0:0:0:
180,24,65139,1,0,0:0:0:0:
180,24,65299,1,2,0:0:0:0:
180,24,65460,1,0,0:0:0:0:
288,204,65620,1,2,0:0:0:0:
170,118,65941,1,0,0:0:0:0:
170,118,66262,1,2,0:0:0:0:
176,84,66422,1,2,0:0:0:0:
176,148,66583,1,0,0:0:0:0:
170,118,66743,5,0,0:0:0:0:
170,118,66904,1,2,0:0:0:0:
192,64,67064,1,2,0:0:0:0:
170,118,67225,5,0,0:0:0:0:
170,118,67545,1,2,0:0:0:0:
176,84,67866,1,0,0:0:0:0:
176,84,68027,1,0,0:0:0:0:
170,118,68187,1,2,0:0:0:0:
170,118,68508,1,0,0:0:0:0:
170,118,68829,1,2,0:0:0:0:
204,276,68989,5,2,0:0:0:0:
170,118,69150,1,0,0:0:0:0:
172,80,69310,1,0,0:0:0:0:
170,118,69471,1,2,0:0:0:0:
170,118,69791,5,0,0:0:0:0:
170,118,70112,1,2,0:0:0:0:
170,118,70433,1,0,0:0:0:0:
264,272,70594,1,0,0:0:0:0:
170,118,70754,1,2,0:0:0:0:
170,118,70914,1,2,0:0:0:0:
170,118,71075,5,4,0:0:0:0:
170,118,71235,1,4,0:0:0:0:
170,118,71717,5,6,0:0:0:0:
170,118,71877,1,6,0:0:0:0:
170,118,72358,5,4,0:0:0:0:
170,118,72679,1,4,0:0:0:0:
170,118,72840,1,6,0:0:0:0:
181,92,73160,1,6,0:0:0:0:
170,118,73481,5,4,0:0:0:0:
170,118,73802,5,2,0:0:0:0:
170,118,73963,1,0,0:0:0:0:
192,68,74123,1,0,0:0:0:0:
170,118,74283,1,0,0:0:0:0:
181,92,74444,1,2,0:0:0:0:
181,92,74604,1,2,0:0:0:0:
232,88,74925,2,0,B|144:240|374:138|264:320,2,280,,,0:0:0:0:
210,94,76850,5,14,0:0:0:0:
200,140,77492,5,4,0:0:0:0:
200,140,77813,1,2,0:0:0:0:
200,140,78134,1,0,0:0:0:0:
200,140,78294,1,0,0:0:0:0:
200,140,78454,1,2,0:0:0:0:
200,140,78775,1,0,0:0:0:0:
200,140,79096,1,2,0:0:0:0:
200,140,79257,1,0,0:0:0:0:
200,140,79577,1,0,0:0:0:0:
200,140,79738,1,2,0:0:0:0:
184,144,79898,1,0,0:0:0:0:
176,144,80059,1,0,0:0:0:0:
200,140,80380,1,2,0:0:0:0:
200,140,80700,1,0,0:0:0:0:
200,140,80861,1,0,0:0:0:0:
200,140,81021,1,2,0:0:0:0:
192,80,81182,1,0,0:0:0:0:
200,140,81342,1,2,0:0:0:0:
200,140,81663,1,2,0:0:0:0:
200,140,81823,1,0,0:0:0:0:
200,140,82144,1,0,0:0:0:0:
200,140,82305,1,2,0:0:0:0:
200,140,82626,1,4,0:0:0:0:
200,140,82946,1,2,0:0:0:0:
200,140,83107,1,2,0:0:0:0:
200,140,83428,1,2,0:0:0:0:
200,140,83749,1,6,0:0:0:0:
171,95,84069,5,2,0:0:0:0:
200,140,84230,1,0,0:0:0:0:
176,88,84390,1,0,0:0:0:0:
200,140,84551,5,0,0:0:0:0:
194,109,84711,5,2,0:0:0:0:
200,140,84872,1,2,0:0:0:0:
200,140,85192,5,4,0:0:0:0:
